The Post 2017 720p TS x264 AAC

seeders: 25
leechers: 5
updated:
Added by moviezworldz in Other


strongly advises you to use NordVPN while downloading torrents.
NordVPN is the safest VPN on the market, and the fastest VPN as well.
No IP Log is saved using NordVPN, avoid other VPN providers and choose the safest one.
Click here and buy NordVPN it's on rebates today!
We were able to verify your IP: 54.196.213.0 and country: United States.
If we can do that, others can too, protect your privacy with NordVPN.
is trying the best for you!


The Post 2017 720p TS x264 AAC Size: 852.6 MB (894015897 Bytes)

Description

 
 
 
General
Format : Matroska
Format version : Version 4 / Version 2
File size : 853 MiB
Duration : 1 h 49 min
Overall bit rate : 1 090 kb/s

Video
ID : 1
Format : AVC
Format/Info : Advanced Video Codec
Format profile : [email protected] 
Format settings : CABAC / 4 Ref Frames
Format settings, CABAC : Yes
Format settings, ReFrames : 4 frames
Codec ID : V_MPEG4/ISO/AVC
Duration : 1 h 49 min
Bit rate : 1 000 kb/s
Width : 1 280 pixels
Height : 684 pixels
Display aspect ratio : 1.85:1
Frame rate mode : Constant
Frame rate : 30.000 FPS
Color space : YUV
Chroma subsampling : 4:2:0
Bit depth : 8 bits
Scan type : Progressive
Bits/(Pixel*Frame) : 0.038
Stream size : 780 MiB (92%)
Writing library : x264 core 148 r2708 86b7198
Default : Yes
Forced : No

Audio
ID : 2
Format : AAC
Format/Info : Advanced Audio Codec
Format profile : LC
Codec ID : A_AAC-2
Duration : 1 h 49 min
Bit rate : 90.1 kb/s
Channel(s) : 2 channels
Channel positions : Front: L R
Sampling rate : 48.0 kHz
Frame rate : 46.875 FPS (1024 SPF)
Compression mode : Lossy
Stream size : 70.4 MiB (8%)
Default : Yes
Forced : No



  

 
 
 
 
 
 




Sharing Widget


Download torrent
Size: 852.6 MB (894015897 Bytes)
seeders:25
leechers:5
The Post 2017 720p TS x264 AAC



To share this torrent use the code below and insert it into comments, status messages, forum posts or your signature.

Torrent: The Post 2017 720p TS x264 AAC

Trackers

tracker name
http://ipv4.tracker.harry.lu/announce
http://ipv4.tracker.harry.lu:80/announce
http://open.kickasstracker.com/announce
https://open.kickasstracker.com:443/announce
udp://tracker.coppersurfer.tk:6969/announce
udp://tracker.coppersurfer.tk:80/announce
udp://tracker.leechers-paradise.org:6969/announce
udp://tracker.openbittorrent.com:80/announce
udp://tracker.zer0day.to:1337/announce
http://82.209.230.66/announce
http://163.172.180.68/announce
udp://eddie4.nl:6969/announce
udp://explodie.org:6969/announce
udp://9.rarbg.to:2720/announce
udp://tracker.zer0day.to:1337/announce
udp://tracker.leechers-paradise.org:6969/announce
udp://coppersurfer.tk:6969/announce
ĀµTorrent compatible trackers list

Locations

name
KickassTorrents
Torrent hash: AA790E9D5F791228D552A431A72BBCDA9757401C

All Comments

audio
0/10
video
0/10
please, leave only comments related to that torrent
Sign In

Report a bug