Maa Kasam Badla Lunga (Aranyamlo) (2018) Hindi Dubbed WEBHD 720p ...

seeders: 1
leechers: 0
updated:
Added by ictv in Other


[ LIMITED VPN OFFER ]
strongly advises you to use NordVPN while downloading torrents.
NordVPN is the safest VPN on the market, and the fastest VPN as well.
No IP Log is saved using NordVPN, avoid other VPN providers and choose the safest one.
Click here and buy NordVPN it's on rebates today!
We were able to verify your IP: 54.225.57.230, country: United States and you are near by: Ashburn.
If we can do that, others can too, protect your privacy with NordVPN.
is trying the best for you!
[ LIMITED VPN OFFER ]


Description

Maa Kasam Badla Lunga (Aranyamlo) (2018) Hindi Dubbed WEBHD 720p x264 AAC - 1GB - MovCr  

Plot: 
Aranyamlo movie is a romantic action thriller written, directed and produced by Sudershan Reddy Palvai under One Man Creations banner while Ajay Patnaik scored music for this movie.

Rohit, Shalu and Charan Naidu are played the main lead roles in this movie.  

 
General
Complete name : www.movcr.com - Maa Kasam Badla Lunga (Aranyamlo) (2018) Hindi Dubbed WEBHD 720p x264 AAC - 1GB - MovCr.mkv
Format : Matroska
Format version : Version 4 / Version 2
File size : 1.00 GiB
Duration : 1 h 48 min
Overall bit rate : 1 325 kb/s
Movie name : www.movcr.com
Encoded date : UTC 2018-01-20 07:45:05
Writing application : mkvmerge v17.0.0 ('Be Ur Friend') 64-bit
Writing library : libebml v1.3.5 + libmatroska v1.4.8

Video
ID : 1
Format : AVC
Format/Info : Advanced Video Codec
Format profile : [email protected] 
Format settings : CABAC / 3 Ref Frames
Format settings, CABAC : Yes
Format settings, RefFrames : 3 frames
Codec ID : V_MPEG4/ISO/AVC
Duration : 1 h 48 min
Bit rate : 1 197 kb/s
Width : 1 280 pixels
Height : 720 pixels
Display aspect ratio : 16:9
Frame rate mode : Constant
Frame rate : 25.000 FPS
Color space : YUV
Chroma subsampling : 4:2:0
Bit depth : 8 bits
Scan type : Progressive
Bits/(Pixel*Frame) : 0.052
Stream size : 927 MiB (90%)
Title : www.movcr.com
Default : Yes
Forced : No
Color range : Limited
Color primaries : BT.709
Transfer characteristics  : BT.709
Matrix coefficients : BT.709

Audio
ID : 2
Format : AAC
Format/Info : Advanced Audio Codec
Format profile : LC
Codec ID : A_AAC-2
Duration : 1 h 48 min
Bit rate : 126 kb/s
Channel(s) : 2 channels
Channel positions : Front: L R
Sampling rate : 44.1 kHz
Frame rate : 43.066 FPS (1024 SPF)
Compression mode : Lossy
Stream size : 97.3 MiB (9%)
Title : www.movcr.com
Language : Hindi
Default : Yes
Forced : No

  
 
 
 
 
 

Sharing Widget


Download torrent
Size: 1.0 GB
seeders:1
leechers:0
Maa Kasam Badla Lunga (Aranyamlo) (2018) Hindi Dubbed WEBHD 720p ... - (1073741824 Bytes)



To share this torrent use the code below and insert it into comments, status messages, forum posts or your signature.

Torrent: Maa Kasam Badla Lunga (Aranyamlo) (2018) Hindi Dubbed WEBHD 720p ...

Trackers

tracker name
udp://tracker.openbittorrent.com:80/announce
udp://tracker.coppersurfer.tk:6969/announce
udp://zer0day.ch:1337/announce
udp://tracker.leechers-paradise.org:6969/announce
udp://9.rarbg.com:2710/announce
udp://p4p.arenabg.com:1337/announce
udp://tracker.sktorrent.net:6969/announce
http://p4p.arenabg.com:1337/announce
udp://tracker.zer0day.to:1337/announce
udp://tracker.leechers-paradise.org:6969/announce
udp://coppersurfer.tk:6969/announce
ĀµTorrent compatible trackers list

Locations

name
KickassTorrents
Torrent hash: 6BC9BDCF3E8502337FEB6C03F80B764CEAA1B679

[ LIMITED VPN OFFER ]
strongly advises you to use NordVPN while downloading torrents.
NordVPN is the safest VPN on the market, and the fastest VPN as well.
No IP Log is saved using NordVPN, avoid other VPN providers and choose the safest one.
Click here and buy NordVPN it's on rebates today!
We were able to verify your IP: 54.225.57.230 and country: United States and you are near by: Ashburn.
If we can do that, others can too, protect your privacy with NordVPN.
is trying the best for you!
[ LIMITED VPN OFFER ]

All Comments

*comments box temporarily disabled*
Report a bug